<?xml version="1.0" standalone="no"?>
<!DOCTYPE svg PUBLIC "-//W3C//DTD SVG 1.1//EN" "http://www.w3.org/Graphics/SVG/1.1/DTD/svg11.dtd" >
<svg xmlns="http://www.w3.org/2000/svg">
<metadata></metadata>
<defs>
<font id="futura_oblique" horiz-adv-x="1024" >
<font-face units-per-em="2048" ascent="1638" descent="-410" />
<missing-glyph horiz-adv-x="590" />
<glyph horiz-adv-x="2048" />
<glyph horiz-adv-x="2048" />
<glyph unicode="&#xd;" horiz-adv-x="590" />
<glyph unicode=" "  horiz-adv-x="590" />
<glyph unicode="&#x09;" horiz-adv-x="590" />
<glyph unicode="&#xa0;" horiz-adv-x="590" />
<glyph unicode="!" horiz-adv-x="635" d="M215 63q0 43 29.5 73t72.5 30t73 -30t30 -73t-30 -72.5t-73 -29.5t-72.5 29.5t-29.5 72.5zM256 303v1194h123v-1194h-123z" />
<glyph unicode="&#x22;" horiz-adv-x="551" d="M100 881v553h86v-553h-86zM365 881v553h86v-553h-86z" />
<glyph unicode="#" horiz-adv-x="1575" d="M129 494l31 90h336l100 282h-360l28 90h365l176 498h110l-174 -498h271l176 498h110l-174 -498h322l-31 -90h-323l-101 -282h348l-30 -90h-351l-174 -494h-112l176 494h-270l-179 -494h-110l174 494h-334zM610 584h269l100 282h-270z" />
<glyph unicode="$" horiz-adv-x="1180" d="M160 274l114 58q62 -199 281 -217v633q-152 73 -227 145q-105 102 -105 237q0 143 97 232q87 80 235 102v101h80v-99q206 -24 293 -178l-105 -57q-57 112 -188 120v-505q176 -84 252 -159q108 -108 108 -267q0 -168 -97 -279.5t-263 -138.5v-170h-80v174q-276 0 -395 268 zM356 1135q0 -155 199 -252v469q-86 -14 -141 -72q-58 -60 -58 -145zM635 117q114 15 175 98q58 77 58 195q0 190 -233 301v-594z" />
<glyph unicode="%" horiz-adv-x="1497" d="M63 1104q0 160 65 259q76 116 228 116t229 -116q66 -98 66 -259t-66 -259q-77 -116 -229 -116t-228 116q-65 99 -65 259zM182 1106q0 -283 174 -283q176 0 176 283q0 280 -176 280q-174 0 -174 -280zM270 -39l842 1518h109l-842 -1518h-109zM848 334q0 161 65 259 q76 116 228 116t229 -116q66 -98 66 -259q0 -160 -66 -258q-77 -115 -229 -115t-228 115q-65 97 -65 258zM967 336q0 -283 174 -283q176 0 176 283q0 280 -176 280q-174 0 -174 -280z" />
<glyph unicode="&#x26;" horiz-adv-x="1311" d="M86 381q0 246 363 473l-56 74q-114 151 -114 268q0 124 101 197q90 65 218 65q125 0 205 -73q84 -76 84 -199q0 -188 -271 -357l361 -446q97 118 174 242l86 -50q-101 -165 -199 -280l252 -295h-145l-182 215q-207 -242 -447 -242q-185 0 -306 111q-124 114 -124 297z M213 387q0 -130 89.5 -218.5t219.5 -88.5q172 0 373 221l-383 467l-66 -47q-116 -83 -162 -139q-71 -86 -71 -195zM401 1188q0 -78 68 -170l82 -111l65 45q154 107 154 236q0 73 -54 122q-52 46 -126 46q-79 0 -132 -44q-57 -46 -57 -124z" />
<glyph unicode="'" horiz-adv-x="285" d="M100 881v553h86v-553h-86z" />
<glyph unicode="(" horiz-adv-x="559" d="M184 555q0 545 238 977l90 -49q-213 -432 -213 -932q0 -544 213 -944l-90 -53q-238 444 -238 1001z" />
<glyph unicode=")" horiz-adv-x="559" d="M47 -393q215 404 215 944q0 496 -215 932l90 49q238 -428 238 -977q0 -557 -238 -1001z" />
<glyph unicode="*" horiz-adv-x="854" d="M119 1006l233 122l-233 129l43 78l227 -145l-6 274h88l-8 -274l229 143l43 -76l-233 -129l233 -122l-47 -78l-227 139l8 -266h-86l8 264l-229 -137z" />
<glyph unicode="+" horiz-adv-x="1706" d="M254 569v82h559v570h80v-570h559v-82h-559v-569h-80v569h-559z" />
<glyph unicode="," horiz-adv-x="590" d="M121 -283l203 537l145 -61l-264 -515z" />
<glyph unicode="-" horiz-adv-x="711" d="M137 377v129h436v-129h-436z" />
<glyph unicode="." horiz-adv-x="590" d="M193 84q0 43 29.5 72.5t72.5 29.5t72.5 -29.5t29.5 -72.5t-29.5 -72.5t-72.5 -29.5t-72.5 29.5t-29.5 72.5z" />
<glyph unicode="/" horiz-adv-x="825" d="M0 -190l717 1687h108l-716 -1687h-109z" />
<glyph unicode="0" horiz-adv-x="1180" d="M102 719q0 298 97 497q127 263 393 263t392 -263q95 -199 95 -497q0 -302 -95 -498q-126 -260 -396 -260q-263 0 -390 263q-96 200 -96 495zM236 717q0 -238 64 -403q91 -234 292 -234q354 0 354 641q0 639 -358 639q-200 0 -290 -238q-62 -166 -62 -405z" />
<glyph unicode="1" horiz-adv-x="1180" d="M281 1331l63 119h330v-1450h-129v1331h-264z" />
<glyph unicode="2" horiz-adv-x="1180" d="M72 0l411 451q391 425 391 612q0 137 -94 219q-90 78 -229 78q-153 0 -238 -98q-80 -93 -80 -248h-131v14q0 212 125 331.5t338 119.5q198 0 321 -104q132 -110 132 -304q0 -219 -345 -602l-9 -10l-322 -344h670v-115h-940z" />
<glyph unicode="3" horiz-adv-x="1180" d="M98 369l144 -1q18 -288 319 -288q150 0 236 79q90 82 90 230q0 150 -91 233q-87 80 -239 80h-28q-18 -1 -27 -1v126l41 -3q14 -1 24 -1q133 0 212 64q85 70 85 200q0 126 -80 202q-79 73 -206 73q-248 0 -277 -236h-143q18 169 135 263q112 90 285 90q181 0 298 -97 q125 -105 125 -282q0 -262 -253 -340q278 -94 278 -371q0 -203 -133 -318q-126 -110 -332 -110q-205 0 -324 101q-123 105 -139 307z" />
<glyph unicode="4" horiz-adv-x="1180" d="M61 371l793 1128v-1014h150v-114h-150v-371h-133v371h-660zM260 485h461v660z" />
<glyph unicode="5" horiz-adv-x="1180" d="M82 240l104 77q124 -237 355 -237q167 0 262 110q90 103 90 273q0 166 -98.5 260t-264.5 94q-187 0 -303 -106l-41 4l187 735h592v-113h-500l-115 -454q114 49 217 49q208 0 335.5 -126.5t127.5 -334.5q0 -227 -134 -368q-136 -144 -361 -144q-307 0 -453 281z" />
<glyph unicode="6" horiz-adv-x="1180" d="M123 408q0 155 95 331q48 90 192 291l342 477l108 -67l-469 -635q116 74 234 74q194 0 312 -130q114 -125 114 -321q0 -211 -135 -340t-347 -129q-205 0 -325.5 122t-120.5 327zM260 416q0 -153 87 -245q89 -95 241 -95q154 0 242 104q83 97 83 254q0 146 -89 239 t-234 93q-150 0 -242 -101q-88 -97 -88 -249z" />
<glyph unicode="7" horiz-adv-x="1180" d="M184 1337v113h899l-737 -1495l-123 63l668 1319h-707z" />
<glyph unicode="8" horiz-adv-x="1180" d="M125 393q0 147 72 250q76 109 215 145q-232 76 -232 332q0 167 125 267q115 92 287 92q180 0 292 -96q117 -102 117 -279q0 -230 -231 -316q136 -36 212 -144q73 -103 73 -247q0 -209 -128 -325q-124 -111 -335 -111q-210 0 -335 110q-132 115 -132 322zM264 399 q0 -151 87 -235t239 -84q151 0 239.5 84.5t88.5 234.5q0 151 -88.5 237.5t-239.5 86.5q-152 0 -239 -86t-87 -238zM319 1100q0 -122 77 -192q74 -66 198 -66t198 67.5t74 190.5q0 122 -75.5 192t-198.5 70t-198 -70t-75 -192z" />
<glyph unicode="9" horiz-adv-x="1180" d="M123 1010q0 211 136 341q133 128 345 128q205 0 327 -122t122 -327q0 -154 -95 -331q-54 -101 -194 -291l-350 -476l-109 66l477 635q-109 -72 -231 -72q-194 0 -313 128q-115 125 -115 321zM262 1006q0 -146 88.5 -240t233.5 -94q150 0 242 101q89 98 89 249 q0 153 -88 247.5t-239 94.5q-154 0 -242 -104q-84 -97 -84 -254z" />
<glyph unicode=":" horiz-adv-x="635" d="M215 84q0 43 29.5 72.5t72.5 29.5t73 -29.5t30 -72.5t-30 -72.5t-73 -29.5t-72.5 29.5t-29.5 72.5zM215 760q0 43 29.5 72.5t72.5 29.5t73 -29.5t30 -72.5t-30 -73t-73 -30t-72.5 30t-29.5 73z" />
<glyph unicode=";" horiz-adv-x="635" d="M129 -283l203 537l145 -61l-264 -515zM301 760q0 43 29.5 72.5t72.5 29.5t73 -29.5t30 -72.5t-30 -73t-73 -30t-72.5 30t-29.5 73z" />
<glyph unicode="&#x3c;" horiz-adv-x="1706" d="M264 580v61l1178 483v-90l-1045 -424l1045 -424v-88z" />
<glyph unicode="=" horiz-adv-x="1706" d="M254 387v82h1198v-82h-1198zM254 752v79h1198v-79h-1198z" />
<glyph unicode="&#x3e;" horiz-adv-x="1706" d="M264 98v88l1045 424l-1045 424v90l1178 -483v-61z" />
<glyph unicode="?" horiz-adv-x="1053" d="M172 1096v32q0 171 96 270t267 99q153 0 243 -90t90 -242q0 -126 -67 -212q-50 -63 -176 -144l-72 -45q-199 -123 -199 -232q0 -74 46.5 -116.5t121.5 -42.5q187 0 187 178v18h110v-24q0 -279 -311 -279q-122 0 -201.5 73.5t-79.5 195.5q0 100 66 179q46 55 151 124 q21 13 73 46q226 143 226 273q0 98 -58.5 155.5t-156.5 57.5q-237 0 -237 -268v-6h-119zM401 63q0 43 30 73t73 30t72.5 -30t29.5 -73t-29.5 -72.5t-72.5 -29.5t-73 29.5t-30 72.5z" />
<glyph unicode="@" horiz-adv-x="2048" d="M121 522q0 330 198 572q291 356 795 356q334 0 553 -168q260 -199 260 -504q0 -346 -244 -540q-140 -111 -305 -111q-192 0 -192 145q0 12 3 34q1 3 1 5q-102 -184 -291 -184q-313 0 -313 326q0 213 122 371q132 173 339 173q193 0 256 -170l61 129h80l-137 -553 q-21 -85 -21 -108q0 -92 117 -92q99 0 204.5 77t165.5 217q56 129 56 271q0 293 -222 458q-199 148 -503 148q-338 0 -569 -192q-310 -257 -310 -672q0 -344 239 -538q221 -179 574 -179q338 0 623 193l29 -45q-292 -220 -648 -220q-376 0 -620 185q-301 228 -301 616z M690 446q0 -110 53 -175q57 -70 164 -70q116 0 202 77q81 73 110 189l63 254q-45 203 -233 203q-170 0 -271 -160q-88 -138 -88 -318z" />
<glyph unicode="A" horiz-adv-x="1223" d="M-18 0l643 1522l616 -1522h-145l-187 496h-598l-194 -496h-135zM356 610h510l-250 637z" />
<glyph unicode="B" horiz-adv-x="1133" d="M182 0v1464h254q133 0 190 -7q112 -15 177 -64q149 -112 149 -310q0 -115 -59 -196q-61 -84 -170 -111q141 -21 221 -112.5t80 -233.5q0 -205 -125 -321q-81 -75 -218 -97q-71 -12 -243 -12h-256zM315 115h170q224 0 293 53q103 79 103 235q0 185 -117 254 q-69 41 -250 41h-199v-583zM315 813h166q165 0 240 47q94 60 94 213q0 162 -89 224q-73 51 -245 51h-166v-535z" />
<glyph unicode="C" horiz-adv-x="1464" d="M113 731q0 337 219.5 551.5t550.5 214.5q281 0 477 -154l-2 -147q-213 184 -463 184q-287 0 -463 -180.5t-176 -468.5q0 -290 176 -467q179 -180 445 -180q256 0 473 170v-156q-224 -137 -467 -137q-334 0 -552 216t-218 554z" />
<glyph unicode="D" horiz-adv-x="1427" d="M182 0v1464h228q242 0 340 -13q196 -27 313 -120q250 -199 250 -600q0 -406 -248 -596q-117 -90 -291 -118q-103 -17 -319 -17h-273zM315 115h187q179 0 254 12q146 22 229 100q186 173 186 506q0 339 -188 506q-91 81 -249 104q-77 11 -275 11h-144v-1239z" />
<glyph unicode="E" horiz-adv-x="1051" d="M182 0v1464h725v-125h-592v-458h592v-125h-592v-631h592v-125h-725z" />
<glyph unicode="F" horiz-adv-x="1026" d="M182 0v1464h725v-125h-592v-458h570v-125h-570v-756h-133z" />
<glyph unicode="G" horiz-adv-x="1673" d="M113 729q0 328 202 543q212 225 537 225q452 0 627 -317l-97 -84q-181 280 -512 280q-281 0 -451 -192q-163 -184 -163 -469q0 -271 178 -453q174 -178 436 -178q242 0 396 140q159 144 163 384h-505v115h651v-16q0 -345 -185 -543q-190 -203 -532 -203q-339 0 -544 216 q-201 211 -201 552z" />
<glyph unicode="H" horiz-adv-x="1427" d="M182 0v1464h133v-594h797v594h133v-1464h-133v756h-797v-756h-133z" />
<glyph unicode="I" horiz-adv-x="498" d="M182 0v1464h133v-1464h-133z" />
<glyph unicode="J" horiz-adv-x="764" d="M6 113l94 86q82 -111 185 -111q116 0 157 106q25 66 25 207v1063h133v-1149q0 -354 -311 -354q-188 0 -283 152z" />
<glyph unicode="K" horiz-adv-x="1176" d="M182 0v1464h133v-686l662 686h174l-694 -700l727 -764h-193l-676 743v-743h-133z" />
<glyph unicode="L" horiz-adv-x="846" d="M182 0v1464h133v-1339h502v-125h-635z" />
<glyph unicode="M" horiz-adv-x="1712" d="M88 0l199 1526l561 -1303l582 1303l188 -1526h-137l-109 1118l-522 -1175l-514 1175l-111 -1118h-137z" />
<glyph unicode="N" horiz-adv-x="1526" d="M182 0v1526l1037 -1225v1163h124v-1507l-1036 1227v-1184h-125z" />
<glyph unicode="O" horiz-adv-x="1792" d="M113 729q0 320 229 547q223 221 553 221q331 0 555 -221q229 -226 229 -547q0 -319 -229.5 -543.5t-554.5 -224.5t-553.5 225.5t-228.5 542.5zM254 729q0 -270 188 -461q185 -188 453 -188t455.5 188.5t187.5 460.5q0 270 -188 461q-185 188 -455 188q-267 0 -454 -189 t-187 -460z" />
<glyph unicode="P" d="M182 0v1464h267q260 0 362 -73q145 -104 145 -330q0 -224 -136 -321q-116 -83 -351 -83h-154v-657h-133zM315 774h91q205 0 287 40q122 59 122 237q0 131 -76 217q-49 56 -156 72q-52 8 -177 8h-91v-574z" />
<glyph unicode="Q" horiz-adv-x="1792" d="M113 731q0 319 228.5 542.5t553.5 223.5q327 0 555.5 -223.5t228.5 -542.5q0 -318 -235 -545l248 -288h-162l-178 206q-210 -135 -469 -135q-319 0 -541 219q-229 226 -229 543zM256 731q0 -273 187 -460t456 -187q223 0 367 121l-340 395h164l272 -317q176 190 176 448 q0 269 -188 459t-455 190q-265 0 -452 -189t-187 -460z" />
<glyph unicode="R" horiz-adv-x="1081" d="M182 0v1464h269q475 0 475 -399q0 -174 -102.5 -270.5t-278.5 -96.5l526 -698h-162l-514 698h-80v-698h-133zM315 807h134q168 0 241 47q92 59 92 215q0 160 -89 225q-75 54 -244 54h-134v-541z" />
<glyph unicode="S" horiz-adv-x="1020" d="M70 246l114 61q67 -227 299 -227q142 0 220 84q75 82 75 225q0 126 -83 209q-53 53 -195 129q-181 96 -250 161q-117 109 -117 259q0 161 110 259q105 93 269 93q222 0 324 -186l-103 -62q-66 129 -229 129q-108 0 -172 -63.5t-64 -171.5q0 -154 254 -287l70 -37 q165 -91 229 -168q84 -102 84 -264q0 -198 -115 -313t-313 -115q-291 0 -407 285z" />
<glyph unicode="T" horiz-adv-x="1018" d="M39 1339v125h940v-125h-404v-1339h-133v1339h-403z" />
<glyph unicode="U" horiz-adv-x="1417" d="M176 551v913h131v-956q0 -428 402 -428q399 0 399 428v956h133v-913q0 -590 -532 -590q-533 0 -533 590z" />
<glyph unicode="V" horiz-adv-x="1128" d="M-18 1464h153l422 -1192l444 1192h146l-592 -1521z" />
<glyph unicode="W" horiz-adv-x="1839" d="M25 1464h139l366 -1169l390 1227l405 -1217l352 1159h138l-490 -1521l-405 1243l-390 -1243z" />
<glyph unicode="X" horiz-adv-x="991" d="M-25 0l447 770l-404 694h150l330 -581l333 581h144l-404 -690l445 -774h-148l-372 649l-375 -649h-146z" />
<glyph unicode="Y" horiz-adv-x="1118" d="M10 1464h160l393 -671l395 671h152l-481 -790v-674h-133v674z" />
<glyph unicode="Z" horiz-adv-x="1147" d="M25 0l870 1343h-743v121h970l-866 -1341h778v-123h-1009z" />
<glyph unicode="[" horiz-adv-x="559" d="M221 -412v1909h291v-98h-174v-1712h174v-99h-291z" />
<glyph unicode="\" horiz-adv-x="825" d="M0 1497h109l716 -1687h-108z" />
<glyph unicode="]" horiz-adv-x="559" d="M47 -313h176v1712h-176v98h291v-1909h-291v99z" />
<glyph unicode="^" horiz-adv-x="2048" d="M424 901l539 557h118l541 -557h-125l-473 469l-475 -469h-125z" />
<glyph unicode="_" d="M0 -403h1024v-80h-1024v80z" />
<glyph unicode="`" d="M268 1380h164l213 -350h-94z" />
<glyph unicode="a" horiz-adv-x="1108" d="M84 438q0 200 104 335q114 147 308 147q232 0 323 -195v162h123v-887h-123v162q-90 -201 -311 -201q-201 0 -316 141q-108 131 -108 336zM221 434q0 -160 68 -253q77 -105 231 -105t233 118q68 102 68 263q0 153 -72 246q-79 104 -227 104q-152 0 -232 -115 q-69 -99 -69 -258z" />
<glyph unicode="b" horiz-adv-x="1108" d="M164 0v1550h123v-825q91 195 321 195q194 0 308 -147q104 -135 104 -335q0 -205 -108 -336q-115 -141 -316 -141q-220 0 -309 201v-162h-123zM285 457q0 -161 68 -263q79 -118 233 -118q297 0 297 358q0 159 -69 258q-80 115 -232 115q-148 0 -227 -104q-70 -93 -70 -246 z" />
<glyph unicode="c" horiz-adv-x="934" d="M92 432q0 218 135 353t353 135q162 0 276 -60l-2 -135q-124 86 -276 86q-170 0 -267 -110q-94 -105 -94 -277q0 -158 101.5 -258t259.5 -100q148 0 290 100v-135q-130 -74 -313 -74q-206 0 -334.5 134t-128.5 341z" />
<glyph unicode="d" horiz-adv-x="1108" d="M88 438q0 200 104 335q114 147 308 147q230 0 321 -195v825h125v-1550h-125v162q-89 -201 -309 -201q-201 0 -316 141q-108 131 -108 336zM225 434q0 -160 68 -253q77 -105 231 -105q153 0 232 119q67 101 67 262q0 153 -70 246q-79 104 -227 104q-152 0 -232 -115 q-69 -99 -69 -258z" />
<glyph unicode="e" horiz-adv-x="1018" d="M88 434q0 208 110 342q119 144 322 144q193 0 303 -132q103 -124 103 -321v-27h-705q5 -157 74 -255q80 -113 229 -113q197 0 295 213l113 -62q-132 -262 -408 -262q-202 0 -322 137q-114 131 -114 336zM229 545h551q-19 256 -276 256q-114 0 -188.5 -70.5t-86.5 -185.5z " />
<glyph unicode="f" horiz-adv-x="530" d="M27 782v105h166v256q0 214 23 284q47 142 210 142q64 0 119 -21l-23 -108q-48 24 -88 24q-81 0 -106 -88q-13 -45 -13 -153v-336h195v-105h-195v-782h-122v782h-166z" />
<glyph unicode="g" horiz-adv-x="1108" d="M90 440q0 205 104 337q113 143 312 143q103 0 187 -52q88 -54 126 -147v166h125v-733q0 -317 -41 -404q-93 -196 -381 -196q-353 0 -395 276h154q30 -166 251 -166q237 0 278 185q9 44 9 135v180q-88 -203 -319 -203q-199 0 -310 143q-100 130 -100 336zM223 438 q0 -155 64 -250q74 -112 221 -112q153 0 237 113q76 101 76 260q0 157 -71 252q-79 106 -230 106q-150 0 -229 -113q-68 -99 -68 -256z" />
<glyph unicode="h" horiz-adv-x="1067" d="M164 0v1550h117v-800q108 170 313 170q151 0 235 -83.5t84 -234.5v-602h-125v547q0 262 -227 262q-274 0 -274 -346v-463h-123z" />
<glyph unicode="i" horiz-adv-x="471" d="M141 1233q0 39 28 66.5t67 27.5t67.5 -27.5t28.5 -66.5q0 -41 -27.5 -67.5t-68.5 -26.5q-40 0 -67.5 27t-27.5 67zM172 0v887h127v-887h-127z" />
<glyph unicode="j" horiz-adv-x="471" d="M141 1233q0 39 28 66.5t67 27.5t67.5 -27.5t28.5 -66.5q0 -41 -27.5 -67.5t-68.5 -26.5q-40 0 -67.5 27t-27.5 67zM172 -446v1333h127v-1333h-127z" />
<glyph unicode="k" horiz-adv-x="938" d="M164 0v1550h123v-1056l442 393h170l-475 -398l510 -489h-170l-477 459v-459h-123z" />
<glyph unicode="l" horiz-adv-x="471" d="M172 0v1550h127v-1550h-127z" />
<glyph unicode="m" horiz-adv-x="1616" d="M164 0v887h123v-139q90 172 282 172q196 0 271 -175q105 175 309 175q145 0 225 -89q78 -85 78 -231v-600h-123v551q0 262 -213 262q-246 0 -246 -346v-467h-122v551q0 262 -209 262q-252 0 -252 -346v-467h-123z" />
<glyph unicode="n" horiz-adv-x="1067" d="M164 0v887h117v-137q108 170 313 170q151 0 235 -83.5t84 -234.5v-602h-125v547q0 262 -227 262q-274 0 -274 -346v-463h-123z" />
<glyph unicode="o" horiz-adv-x="1143" d="M90 442q0 199 139.5 338.5t337.5 139.5q202 0 344 -140t142 -338q0 -197 -140 -336q-146 -145 -346 -145q-193 0 -340 145q-137 135 -137 336zM223 440q0 -151 98 -256q100 -108 250 -108t251 108q98 105 98 256q0 152 -99 258.5t-250 106.5t-249.5 -106.5t-98.5 -258.5z " />
<glyph unicode="p" horiz-adv-x="1108" d="M164 -446v1333h119v-166q106 199 317 199q199 0 312 -144q104 -131 104 -336t-101 -335q-111 -144 -309 -144q-217 0 -323 203v-610h-119zM285 449q0 -158 77 -260q85 -113 238 -113q147 0 221 112q62 95 62 250q0 157 -67 255q-78 114 -228 114q-151 0 -231 -106 q-72 -95 -72 -252z" />
<glyph unicode="q" horiz-adv-x="1108" d="M90 440q0 205 104 337q113 143 312 143q214 0 319 -199v166h119v-1333h-119v610q-106 -203 -325 -203q-198 0 -309 144q-101 130 -101 335zM223 438q0 -155 64 -250q74 -112 221 -112q153 0 237 113q76 101 76 260q0 157 -71 252q-79 106 -230 106q-150 0 -229 -113 q-68 -99 -68 -256z" />
<glyph unicode="r" horiz-adv-x="645" d="M164 0v887h123v-178q125 211 286 211q50 0 105 -19l-40 -116q-47 14 -83 14q-127 0 -203 -123q-65 -105 -65 -240v-436h-123z" />
<glyph unicode="s" horiz-adv-x="782" d="M63 158l117 67q58 -149 219 -149q73 0 119 35q51 39 51 110q0 102 -181 173q-11 5 -30 12q-118 47 -171 91q-81 67 -81 167q0 119 85 191q81 67 202 67q222 0 295 -181l-113 -63q-43 129 -190 129q-61 0 -102 -35q-45 -37 -45 -96q0 -70 75 -115q33 -20 136 -55 q127 -44 179 -94q68 -65 68 -183q0 -132 -98 -204q-87 -64 -223 -64q-237 0 -312 197z" />
<glyph unicode="t" horiz-adv-x="508" d="M27 782v105h163v364h121v-364h178v-105h-178v-782h-121v782h-163z" />
<glyph unicode="u" horiz-adv-x="1079" d="M164 381v506h123v-443q0 -175 40 -255q57 -113 212 -113q154 0 212 114q42 81 42 254v443h122v-506q0 -420 -374 -420q-377 0 -377 420z" />
<glyph unicode="v" horiz-adv-x="874" d="M31 887h135l272 -672l271 672h137l-408 -944z" />
<glyph unicode="w" horiz-adv-x="1327" d="M25 887h129l231 -639l279 686l278 -686l232 639h129l-355 -944l-282 706l-287 -706z" />
<glyph unicode="x" horiz-adv-x="807" d="M0 0l332 461l-301 426h153l217 -326l217 326h150l-299 -426l330 -461h-152l-248 358l-245 -358h-154z" />
<glyph unicode="y" horiz-adv-x="825" d="M43 887h131l254 -694l234 694h131l-459 -1333h-127l155 452z" />
<glyph unicode="z" horiz-adv-x="780" d="M23 0l495 776h-461v111h674l-491 -776h505v-111h-722z" />
<glyph unicode="{" d="M176 485v90q20 -2 49 -2q145 0 203 72q51 65 51 215v240q0 211 58 287q68 90 268 90h43v-88h-37q-143 0 -189 -62q-40 -53 -40 -203v-241q0 -151 -30 -220q-41 -97 -165 -133q124 -36 166 -132q29 -68 29 -220v-241q0 -150 39 -202q46 -61 188 -61h39v-88h-43 q-200 0 -268 89q-58 76 -58 286v240q0 151 -53 215q-58 71 -205 71q-8 0 -22.5 -1t-22.5 -1z" />
<glyph unicode="|" d="M467 -483v2048h90v-2048h-90z" />
<glyph unicode="}" d="M176 -326h39q142 0 188 61q39 52 39 202v241q0 151 30 220q43 96 167 132q-125 36 -167 132q-30 69 -30 221v241q0 150 -40 203q-46 62 -189 62h-37v88h43q200 0 268 -90q58 -76 58 -287v-240q0 -151 53 -216q58 -71 205 -71q8 0 22.5 1t22.5 1v-90q-8 0 -22.5 1t-22.5 1 q-147 0 -205 -71q-53 -64 -53 -215v-240q0 -210 -58 -286q-68 -89 -268 -89h-43v88z" />
<glyph unicode="~" horiz-adv-x="1706" d="M178 481v92q207 146 387 146q102 0 271 -61q15 -6 46 -17q168 -61 261 -61q160 0 387 159v-92q-211 -147 -387 -147q-99 0 -266 61l-22 8q-9 3 -33 12q-166 60 -257 60q-161 0 -387 -160z" />
<glyph unicode="&#xa1;" horiz-adv-x="635" d="M215 1395q0 43 29.5 72.5t72.5 29.5t73 -29.5t30 -72.5t-30 -73t-73 -30t-72.5 30t-29.5 73zM256 0v1157h123v-1157h-123z" />
<glyph unicode="&#xa2;" horiz-adv-x="1180" d="M123 735q0 203 122 333q119 128 322 153v161h80v-159q135 0 283 -60v-135q-124 80 -282 86l-1 -745q191 21 283 96v-131q-111 -68 -282 -72l-1 -205h-80v207q-198 11 -321 142t-123 329zM254 748q0 -152 81 -251q83 -102 232 -122v735q-139 -14 -226 -117.5t-87 -244.5z " />
<glyph unicode="&#xa3;" horiz-adv-x="1180" d="M100 20q71 134 195 170q80 111 80 205q0 84 -45 205h-230v90h185q-103 214 -103 371q0 191 131 307q125 111 318 111q203 0 319 -112.5t123 -315.5l-127 -22q-3 152 -80 240q-82 93 -231 93q-143 0 -229 -79q-89 -82 -89 -224q0 -129 101 -369h389v-90h-358 q38 -105 38 -176q0 -142 -101 -229q80 -2 223 -59q140 -56 194 -56q120 0 211 143l88 -59q-107 -201 -291 -201q-77 0 -217.5 60.5t-198.5 60.5q-116 0 -209 -125z" />
<glyph unicode="&#xa4;" horiz-adv-x="1241" d="M94 418l207 205q-92 117 -92 262q0 143 92 262l-207 205l58 59l206 -207q117 94 263 94q144 0 264 -94l205 207l59 -59l-207 -205q92 -119 92 -262q0 -146 -92 -262l207 -205l-59 -60l-205 207q-119 -92 -264 -92t-263 92l-206 -207zM291 887q0 -139 96.5 -235.5 t235.5 -96.5q138 0 234.5 97t96.5 235t-96.5 234t-234.5 96t-235 -96t-97 -234z" />
<glyph unicode="&#xa5;" horiz-adv-x="1182" d="M33 631v98h456l-98 162h-358v100h293l-283 461h147l402 -676l412 676h135l-281 -461h289v-100h-352l-99 -162h451v-98h-490v-631h-127v631h-497z" />
<glyph unicode="&#xa6;" d="M467 -350v758h90v-758h-90zM467 674v758h90v-758h-90z" />
<glyph unicode="&#xa7;" horiz-adv-x="1042" d="M115 530q0 126 75 220q72 90 195 129q-219 90 -219 297q0 156 110 243q101 80 261 80q348 0 348 -334v-20h-135q-10 246 -222 246q-95 0 -158 -56.5t-63 -150.5q0 -106 81 -170q51 -40 179 -86q178 -64 257 -135q110 -99 110 -258q0 -274 -264 -357q217 -94 217 -305 q0 -148 -105 -240q-99 -88 -250 -88q-161 0 -257 89q-99 91 -99 251v23l127 -1q6 -233 227 -233q103 0 162.5 55.5t59.5 157.5q0 101 -83 160q-44 32 -175 80q-105 39 -136 52q-84 36 -125 73q-118 106 -118 278zM250 530q0 -126 75 -201t201 -75q115 0 195 80.5t80 195.5 q0 123 -76 199t-199 76q-116 0 -196 -79.5t-80 -195.5z" />
<glyph unicode="&#xa8;" d="M240 1188q0 40 28 69t68 29t69 -29t29 -69q0 -42 -28 -69t-70 -27q-96 0 -96 96zM590 1188q0 40 29 69t69 29t68 -29t28 -69q0 -96 -96 -96q-42 0 -70 27t-28 69z" />
<glyph unicode="&#xa9;" horiz-adv-x="1706" d="M123 721q0 218 124.5 406t324.5 271q131 54 280 54q305 0 520 -215q104 -104 157.5 -236t53.5 -280q0 -304 -211 -512q-222 -219 -520 -219q-297 0 -513 216t-216 515zM195 721q0 -269 194.5 -463.5t462.5 -194.5q197 0 366.5 113t244.5 294q48 117 48 251 q0 274 -190 465q-193 194 -469 194q-274 0 -461 -190q-196 -199 -196 -469zM471 725q0 192 96 316q106 135 293 135q125 0 215 -66q97 -71 111 -192h-105q-42 172 -227 172q-142 0 -211 -121q-55 -96 -55 -250q0 -149 58 -246q70 -119 208 -119q91 0 156 52t84 141h102 q-12 -131 -116 -208q-97 -71 -232 -71q-187 0 -288 139q-89 124 -89 318z" />
<glyph unicode="&#xaa;" horiz-adv-x="831" d="M63 1151q0 144 82 238q86 98 228 98q174 0 241 -135v112h93v-620h-93v112q-69 -139 -233 -139q-147 0 -234 94q-84 91 -84 240zM166 1147q0 -250 225 -250q112 0 171 79q54 71 54 187q0 111 -56 177q-60 69 -169 69q-111 0 -171 -78q-54 -70 -54 -184z" />
<glyph unicode="&#xab;" horiz-adv-x="782" d="M45 436l244 395l86 -53l-209 -344l213 -332l-82 -53zM401 436l246 395l86 -53l-211 -344l215 -332l-82 -53z" />
<glyph unicode="&#xac;" horiz-adv-x="1706" d="M254 774v82h1198v-502h-78v420h-1120z" />
<glyph unicode="&#xad;" horiz-adv-x="711" d="M137 377v129h436v-129h-436z" />
<glyph unicode="&#xae;" horiz-adv-x="1706" d="M123 721q0 218 124.5 406t324.5 271q131 54 280 54q305 0 520 -215q104 -104 157.5 -236t53.5 -280q0 -304 -211 -512q-222 -219 -520 -219q-297 0 -513 216t-216 515zM195 721q0 -269 194.5 -463.5t462.5 -194.5q197 0 366.5 113t244.5 294q48 117 48 251 q0 274 -190 465q-193 194 -469 194q-274 0 -461 -190q-196 -199 -196 -469zM569 309v846h305q349 0 349 -233q0 -91 -56 -150t-147 -70l190 -393h-131l-182 377h-213v-377h-115zM684 764h168q122 0 174 23q80 35 80 139q0 151 -254 151h-168v-313z" />
<glyph unicode="&#xaf;" d="M254 1118v117h516v-117h-516z" />
<glyph unicode="&#xb0;" horiz-adv-x="674" d="M63 1176q0 115 80 194.5t195 79.5q113 0 192.5 -80.5t79.5 -193.5q0 -115 -79.5 -194t-194.5 -79q-116 0 -194.5 78.5t-78.5 194.5zM125 1176q0 -89 62 -151t151 -62t151 62t62 151q0 88 -62.5 150.5t-150.5 62.5q-90 0 -151.5 -61.5t-61.5 -151.5z" />
<glyph unicode="&#xb1;" horiz-adv-x="1706" d="M254 59v82h1198v-82h-1198zM254 727v80h559v354h80v-354h559v-80h-559v-352h-80v352h-559z" />
<glyph unicode="&#xb2;" horiz-adv-x="778" d="M47 575l209 207l60 60q262 259 262 370q0 85 -66 134q-59 45 -147 45q-98 0 -154.5 -54.5t-56.5 -152.5h-86v8q0 132 88 204q82 66 217 66q124 0 206 -58q93 -66 93 -185q0 -153 -221 -357l-13 -12l-213 -205h443v-70h-621z" />
<glyph unicode="&#xb3;" horiz-adv-x="778" d="M66 797h94q12 -174 211 -174q95 0 152 45q63 49 63 141q0 93 -63 143q-58 45 -154 45h-19q-12 -1 -18 -1v75q7 0 21.5 -1t21.5 -1q196 0 196 160q0 79 -57 123q-52 41 -133 41q-163 0 -182 -141l-95 -1q12 104 94 161q73 50 183 50q115 0 193 -55q88 -61 88 -172 q0 -156 -168 -203q184 -59 184 -223q0 -126 -93 -195q-83 -61 -214 -61q-286 0 -305 244z" />
<glyph unicode="&#xb4;" d="M379 1030l213 350h164l-283 -350h-94z" />
<glyph unicode="&#xb6;" d="M90 1130q0 166 117 261q109 88 278 88h447v-64h-129v-1415h-70v1415h-192v-1415h-70v782q-165 8 -268 94q-113 94 -113 254z" />
<glyph unicode="&#xb7;" horiz-adv-x="590" d="M193 719q0 43 29.5 72.5t72.5 29.5t72.5 -29.5t29.5 -72.5t-29.5 -73t-72.5 -30t-72.5 30t-29.5 73z" />
<glyph unicode="&#xb8;" d="M301 -309q162 -33 225 -33q125 0 125 88q0 90 -141 90q-7 0 -20.5 -1t-20.5 -1v166h61v-100h15q213 0 213 -152q0 -164 -215 -164q-98 0 -242 37v70z" />
<glyph unicode="&#xb9;" horiz-adv-x="778" d="M186 1374l41 72h217v-871h-84v799h-174z" />
<glyph unicode="&#xba;" horiz-adv-x="858" d="M68 1153q0 146 108 242q104 92 250 92q154 0 258 -96q107 -99 107 -238q0 -144 -113 -242q-107 -94 -252 -94q-147 0 -256 101q-102 94 -102 235zM168 1153q0 -109 75.5 -182.5t184.5 -73.5q110 0 186 73.5t76 182.5t-76 181.5t-186 72.5q-109 0 -184.5 -72.5 t-75.5 -181.5z" />
<glyph unicode="&#xbb;" horiz-adv-x="782" d="M45 102l215 332l-211 344l86 53l244 -395l-252 -387zM401 102l215 332l-208 344l86 53l243 -395l-252 -387z" />
<glyph unicode="&#xbc;" horiz-adv-x="1829" d="M176 1378l41 66h207v-811h-80v745h-168zM401 -39l918 1518h106l-915 -1518h-109zM1124 207l500 633v-568h94v-65h-94v-207h-84v207h-416zM1249 272h291v369z" />
<glyph unicode="&#xbd;" horiz-adv-x="1829" d="M176 1378l41 66h207v-811h-80v745h-168zM401 -39l918 1518h106l-915 -1518h-109zM1130 0l199 195q15 14 53 50q254 243 254 351q0 79 -64 125q-57 41 -140 41q-92 0 -145.5 -51.5t-53.5 -143.5h-82v8q0 125 85 191q77 61 206 61q119 0 196 -53q88 -61 88 -174 q0 -121 -218 -339l-5 -5l-203 -193h422v-63h-592z" />
<glyph unicode="&#xbe;" horiz-adv-x="1829" d="M61 840h91q12 -162 202 -162q89 0 144 41q61 45 61 131q0 176 -209 176h-35v70q7 0 21.5 -1t21.5 -1q187 0 187 147q0 75 -54 116q-49 38 -126 38q-158 0 -175 -131h-89q9 98 89 150q71 46 175 46q108 0 182 -50q84 -58 84 -161q0 -148 -160 -190q176 -52 176 -209 q0 -118 -90 -183q-80 -57 -203 -57q-270 0 -293 230zM401 -39l918 1518h106l-915 -1518h-109zM1124 207l500 633v-568h94v-65h-94v-207h-84v207h-416zM1249 272h291v369z" />
<glyph unicode="&#xbf;" horiz-adv-x="1053" d="M172 295q0 126 67 212q49 62 177 144q21 14 74 47q198 122 198 230q0 74 -47.5 116.5t-122.5 42.5q-186 0 -186 -178v-18h-111v24q0 279 311 279q122 0 201 -72q80 -75 80 -196q0 -101 -65 -179q-45 -53 -152 -124q-20 -14 -72 -47q-227 -143 -227 -273 q0 -98 58.5 -155.5t156.5 -57.5q238 0 238 268v7h118v-33q0 -170 -96 -270.5t-266 -100.5q-153 0 -243.5 90.5t-90.5 243.5zM436 1395q0 43 29 72.5t72 29.5t72.5 -29.5t29.5 -72.5t-29.5 -73t-72.5 -30q-44 0 -72.5 29.5t-28.5 73.5z" />
<glyph unicode="&#xc0;" horiz-adv-x="2845" d="M82 -25l1016 344l12 -10l-979 -334h-49zM82 -25h49l1245 -413v-19zM82 1124h49l1245 -417v-19zM82 1124l1294 439v-19l-1245 -420h-49zM117 -12h2513v-19h-2513v19zM117 1110v23h2513v-23h-2513zM219 -25h53l1104 -413v-19zM219 -25l885 334l12 -10l-844 -324h-53z M219 1124l1157 439v-19l-1104 -420h-53zM219 1124h53l1104 -417v-19zM481 -25l645 318l15 -10l-619 -308h-41zM481 -25h41l854 -413v-19zM481 1124h41l854 -417v-19zM481 1124l895 439v-19l-854 -420h-41zM618 -188h1518l-31 -19h-1460zM618 956h1518l-31 -18h-1460z M772 -25l393 285l11 -12l-373 -273h-31zM772 -25h31l573 -413v-19zM772 1124l604 439v-19l-573 -420h-31zM772 1124h31l573 -417v-19zM961 551q0 200 109.5 310t309.5 110t308 -110t108 -310q0 -197 -109.5 -306.5t-306.5 -109.5t-308 109.5t-111 306.5zM1030 287l37 12h49 l21 -12h-107zM1030 1432l37 12h619l40 -12h-696zM1038 506q0 -33 27 -33t27 31q0 28 -25 28q-6 0 -12 -2q-17 -12 -17 -24zM1044 -336h668l-31 -12h-620zM1044 811h478l8 -12h-469zM1057 446l12 -34l39 -70l18 -23l29 -24l37 -27l31 -16l28 -10l-18 18l-23 16l-32 37l-23 25 l-39 78l-6 24l-10 27l-10 -12l-11 -9h-22zM1083 -25h21l272 -413v-19zM1083 -25l293 439v-17l-272 -422h-21zM1083 1124l293 439v-19l-272 -420h-21zM1083 1124h21l272 -417v-19zM1098 319l112 35zM1110 309zM1116 299zM1137 287zM1141 283zM1176 248zM1210 354l166 60v-17 l-153 -55zM1212 354zM1212 354l164 60v-17l-153 -59zM1223 340l153 74v-17l-143 -69zM1223 340zM1239 313zM1239 313l137 101v-17l-129 -94zM1251 299zM1251 299h435l40 -12h-466zM1370 406h16v-850l-16 4v846zM1370 702v850h16v-850h-16zM1376 397v17l613 -439h-35z M1376 397v17l901 -439h-45zM1376 397v17l295 -439h-20zM1376 397v17l1159 -439h-53zM1376 397v17l1297 -439h-50zM1376 -438l275 413h20l-295 -432v19zM1376 -438l1247 413h50l-1297 -432v19zM1376 -438l1106 413h53l-1159 -432v19zM1376 -438l578 413h35l-613 -432v19z M1376 -438l856 413h45l-901 -432v19zM1376 688v19l174 59l11 -16zM1376 688v19l170 63l13 -10zM1376 688v19l146 104l8 -12zM1376 688v19l160 77l10 -14zM1376 688v19l275 417h20zM1376 1544v19l295 -439h-20zM1376 1544v19l613 -439h-35zM1376 1544v19l901 -439h-45z M1376 1544v19l1159 -439h-53zM1376 1544v19l1297 -439h-50zM1518 887l24 -27l19 -18l14 -17l6 -16l16 -25l9 -22l12 -37l14 14l25 19l16 2l-51 63l-25 21l-22 16l-39 17zM1530 799zM1530 799zM1546 770zM1559 760zM1561 750zM1604 870l350 254h35l-373 -268zM1604 870z M1632 831zM1632 831l600 293h45l-626 -307zM1653 811zM1653 811l829 313h53l-870 -325zM1653 811zM1653 811h59l-31 -12h-16zM1663 801zM1663 801l960 323h50l-1002 -336zM2103 158zM2103 1303z" />
<glyph unicode="&#xc1;" horiz-adv-x="6042" d="M92 -414h1612v389h-1206v775h-406v-1164zM92 1137v387h1612v-387h-1612zM2105 -414h404v776h805v-776h399v1164h-1608v-1164zM2105 1137v387h1608v-387h-1608zM4119 -25v-389h1607v1164h-1607v-388h1206v-387h-1206zM4119 1137v387h1607v-387h-1607z" />
<glyph unicode="&#xc2;" horiz-adv-x="2245" d="M102 1561l1037 -1983l1018 1983h-76v-48h10l-956 -1841l-963 1841h1909v48h-1979zM391 1368l119 -229h1241l117 229h-1477zM551 1059l121 -230h921l117 230h-1159zM575 1253q0 56 50 56h16v-27h-12q-27 0 -27 -29q0 -26 27 -26h12v-25h-16q-50 0 -50 51zM664 1260 q0 49 53 49q49 0 49 -49q0 -58 -49 -58q-53 0 -53 58zM688 1253q0 -26 29 -26q24 0 24 26q0 29 -24 29q-29 0 -29 -29zM711 756l120 -234h601l118 234h-839zM762 893l22 102h23l24 -102h-22l-2 18h-23l-2 -18h-20zM791 928h12q-6 22 -8 45zM791 1202l6 82q2 25 18 25 q19 0 21 -23l4 -49l10 53q3 19 20 19q19 0 19 -23l8 -84h-23l-8 84l-12 -67q-3 -17 -14 -17q-9 0 -9 12l-16 70l-4 -82h-20zM864 893v102h17q45 0 45 -51q0 -39 -29 -47q-4 -4 -18 -4h-15zM866 434v10h537v-10h-537zM866 434h8q74 -139 173 -309q22 -31 40 -31q24 0 29 39 q15 111 -4 111h-10l-29 -19l62 189v-506zM883 911q22 0 22 33t-22 33v-66zM885 592v22q12 -8 18 -8q12 0 12 15l-14 14q-16 16 -16 27q0 26 28 26q7 0 17 -4v-16q-8 2 -10 4q-15 0 -15 -10l15 -19q14 -18 14 -22q0 -37 -29 -37q-8 0 -20 8zM920 1202v66q0 41 36 41 q35 0 35 -37q0 -35 -35 -35h-4v25q17 0 17 10q0 12 -15 12q-10 0 -10 -12v-70h-24zM944 688h23l6 -18q4 -4 6 -19q2 6 2 19l8 18h21l-25 -55v-47h-16v47zM954 995h25l10 -75q0 8 6 30l13 45h20l-24 -102h-23zM1018 1237v72h22v-72q0 -14 11 -14q18 0 18 14v72h21v-72 q0 -35 -39 -35q-33 0 -33 35zM1022 662q0 26 25 26q12 0 22 -4v-16q-10 2 -18 4q-7 0 -7 -10l13 -19q9 -14 12 -22q0 -37 -29 -37q-8 0 -16 8v22q8 -8 14 -8q9 0 9 15l-11 14q-14 20 -14 27zM1051 893l22 102h19l28 -102h-24l-4 18h-19l-2 -18h-20zM1075 928h15l-3 45z M1087 670v18h52v-18h-17v-84h-20v84h-15zM1112 1282v27h64v-27h-17v-80h-29v80h-18zM1135 -92l268 526h-10q-105 -204 -168 -309q-19 -31 -45 -31q-23 0 -27 39q-11 111 8 111h2q17 -8 31 -19l-59 189v-506zM1153 893v102h23l18 -53q0 -6 6 -22q-2 22 -2 34v41h21v-102h-21 l-22 57q0 8 -7 19q7 -15 7 -33v-43h-23zM1161 586v102h43v-18h-24v-19h20v-20h-20v-25h24v-20h-43zM1194 1260q0 49 53 49t53 -49q0 -58 -53 -58t-53 58zM1219 1253q0 -26 28 -26q31 0 31 26q0 29 -31 29q-28 0 -28 -29zM1227 586l10 102h25l6 -37q2 -12 2 -30q2 4 6 30 l2 37h25l12 -102h-21l-6 47v37l-10 -84h-16l-13 84v-13q-2 -10 -2 -16v-8l-4 -47h-16zM1255 944q0 51 41 51h13v-22q-2 4 -9 4q-22 0 -22 -33t22 -33q7 0 9 7v-21q-2 -4 -9 -4q-45 0 -45 51zM1327 1202v66q0 41 35 41q37 0 37 -27v-2q0 -23 -23 -27q23 0 23 -16v-35h-27v35 q0 6 -14 6v23q14 0 14 8q0 10 -10 10t-10 -12v-70h-25zM1333 592v22q10 -8 15 -8q12 0 12 15l-14 14q-13 12 -13 27q0 26 27 26q8 0 14 -4v-16l-12 4q-6 0 -6 -10l10 -19q10 -14 10 -22q0 -37 -24 -37q-9 0 -19 8zM1356 893v102h37v-18h-21v-23h21v-16h-21v-20h21v-25h-37z M1430 1202v107h24v-107h-24zM1438 893v102h16q45 0 45 -51t-49 -51h-12zM1456 911q23 0 23 33t-23 33v-66zM1479 1237v72h26v-72q0 -14 15 -14q10 0 10 14v72h26v-72q0 -35 -36 -35q-41 0 -41 35zM1581 1202l4 82q1 25 23 25q12 0 16 -23l8 -49h4l4 53q2 19 23 19 q19 0 20 -23l5 -84h-23l-2 84l-16 -67q-4 -17 -11 -17q-14 0 -14 12l-12 70l-6 -82h-23z" />
<glyph unicode="&#xc3;" horiz-adv-x="2361" d="M78 1518v36h2160v-36h-2160zM78 1524h33q284 -523 684 -1162q94 -100 174 -100q91 0 108 131q25 184 25 273q0 143 -47 143h-11q-9 0 -22 -8q-91 -57 -111 -60l244 709v-1894zM1155 -444l1083 1968h-32q-293 -523 -693 -1162q-86 -100 -170 -100q-92 0 -112 131 q-25 160 -25 264q0 152 54 152h8q6 0 127 -68l-240 709v-1894z" />
<glyph unicode="&#xc4;" horiz-adv-x="1223" d="M-18 0l643 1522l616 -1522h-145l-187 496h-598l-194 -496h-135zM340 1766q0 40 28 69t68 29t69 -29t29 -69q0 -42 -28 -69t-70 -27q-96 0 -96 96zM356 610h510l-250 637zM690 1766q0 40 29 69t69 29t68 -29t28 -69q0 -96 -96 -96q-42 0 -70 27t-28 69z" />
<glyph unicode="&#xc5;" horiz-adv-x="1223" d="M-18 0l624 1460h39l596 -1460h-145l-187 496h-598l-194 -496h-135zM356 610h510l-250 633zM389 1737q0 101 67.5 168t168.5 67q100 0 167.5 -67.5t67.5 -167.5t-67.5 -168t-167.5 -68t-168 68t-68 168zM492 1737q0 -56 38.5 -94.5t94.5 -38.5t94.5 38.5t38.5 94.5 t-38.5 94.5t-94.5 38.5t-94.5 -38.5t-38.5 -94.5z" />
<glyph unicode="&#xc6;" horiz-adv-x="1688" d="M8 0l529 1464h618l41 -125h-506l158 -458h526l43 -125h-526l215 -631h532l41 -125h-665l-170 496h-533l-176 -496h-127zM348 610h457l-217 662z" />
<glyph unicode="&#xc7;" horiz-adv-x="1464" d="M113 731q0 337 219.5 551.5t550.5 214.5q281 0 477 -154l-2 -147q-213 184 -463 184q-287 0 -463 -180.5t-176 -468.5q0 -290 176 -467q179 -180 445 -180q256 0 473 170v-156q-224 -137 -467 -137q-334 0 -552 216t-218 554zM649 -309q162 -33 225 -33q125 0 125 88 q0 90 -141 90q-7 0 -20.5 -1t-20.5 -1v166h61v-100h15q213 0 213 -152q0 -164 -215 -164q-98 0 -242 37v70z" />
<glyph unicode="&#xc8;" horiz-adv-x="1051" d="M182 0v1464h725v-125h-592v-458h592v-125h-592v-631h592v-125h-725zM297 1958h164l213 -350h-94z" />
<glyph unicode="&#xc9;" horiz-adv-x="1051" d="M182 0v1464h725v-125h-592v-458h592v-125h-592v-631h592v-125h-725zM408 1608l213 350h164l-283 -350h-94z" />
<glyph unicode="&#xca;" horiz-adv-x="1051" d="M182 0v1464h725v-125h-592v-458h592v-125h-592v-631h592v-125h-725zM254 1608l213 350h146l213 -350h-92l-193 250l-195 -250h-92z" />
<glyph unicode="&#xcb;" horiz-adv-x="1051" d="M182 0v1464h725v-125h-592v-458h592v-125h-592v-631h592v-125h-725zM269 1766q0 40 28 69t68 29t69 -29t29 -69q0 -42 -28 -69t-70 -27q-96 0 -96 96zM619 1766q0 40 29 69t69 29t68 -29t28 -69q0 -96 -96 -96q-42 0 -70 27t-28 69z" />
<glyph unicode="&#xcc;" horiz-adv-x="498" d="M6 1958h164l213 -350h-94zM182 0v1464h133v-1464h-133z" />
<glyph unicode="&#xcd;" horiz-adv-x="498" d="M117 1608l213 350h164l-283 -350h-94zM182 0v1464h133v-1464h-133z" />
<glyph unicode="&#xce;" horiz-adv-x="498" d="M-37 1608l213 350h146l213 -350h-92l-193 250l-195 -250h-92zM182 0v1464h133v-1464h-133z" />
<glyph unicode="&#xcf;" horiz-adv-x="498" d="M-22 1766q0 40 28 69t68 29t69 -29t29 -69q0 -42 -28 -69t-70 -27q-96 0 -96 96zM182 0v1464h133v-1464h-133zM328 1766q0 40 29 69t69 29t68 -29t28 -69q0 -96 -96 -96q-42 0 -70 27t-28 69z" />
<glyph unicode="&#xd0;" horiz-adv-x="1673" d="M113 729q0 328 202 543q212 225 537 225q452 0 627 -317l-97 -84q-181 280 -512 280q-281 0 -451 -192q-163 -184 -163 -469q0 -271 178 -453q174 -178 436 -178q242 0 396 140q159 144 163 384h-505v115h651v-16q0 -345 -185 -543q-190 -203 -532 -203q-339 0 -544 216 q-201 211 -201 552zM564 1862h79q21 -129 195 -129q172 0 193 129h81q-23 -240 -274 -240t-274 240z" />
<glyph unicode="&#xd1;" horiz-adv-x="1526" d="M182 0v1526l1037 -1225v1163h124v-1507l-1036 1227v-1184h-125zM473 1672q45 178 199 178q36 0 59 -8l78 -27q29 -10 61 -10q73 0 97 67h88q-51 -184 -199 -184q-35 0 -65 10l-80 27q-24 8 -58 8q-61 0 -92 -61h-88z" />
<glyph unicode="&#xd2;" horiz-adv-x="1792" d="M113 729q0 320 229 547q223 221 553 221q331 0 555 -221q229 -226 229 -547q0 -319 -229.5 -543.5t-554.5 -224.5t-553.5 225.5t-228.5 542.5zM254 729q0 -270 188 -461q185 -188 453 -188t455.5 188.5t187.5 460.5q0 270 -188 461q-185 188 -455 188q-267 0 -454 -189 t-187 -460zM653 1958h164l213 -350h-94z" />
<glyph unicode="&#xd3;" horiz-adv-x="1792" d="M113 729q0 320 229 547q223 221 553 221q331 0 555 -221q229 -226 229 -547q0 -319 -229.5 -543.5t-554.5 -224.5t-553.5 225.5t-228.5 542.5zM254 729q0 -270 188 -461q185 -188 453 -188t455.5 188.5t187.5 460.5q0 270 -188 461q-185 188 -455 188q-267 0 -454 -189 t-187 -460zM764 1608l213 350h164l-283 -350h-94z" />
<glyph unicode="&#xd4;" horiz-adv-x="1792" d="M113 729q0 320 229 547q223 221 553 221q331 0 555 -221q229 -226 229 -547q0 -319 -229.5 -543.5t-554.5 -224.5t-553.5 225.5t-228.5 542.5zM254 729q0 -270 188 -461q185 -188 453 -188t455.5 188.5t187.5 460.5q0 270 -188 461q-185 188 -455 188q-267 0 -454 -189 t-187 -460zM610 1608l213 350h146l213 -350h-92l-193 250l-195 -250h-92z" />
<glyph unicode="&#xd5;" horiz-adv-x="1792" d="M113 729q0 320 229 547q223 221 553 221q331 0 555 -221q229 -226 229 -547q0 -319 -229.5 -543.5t-554.5 -224.5t-553.5 225.5t-228.5 542.5zM254 729q0 -270 188 -461q185 -188 453 -188t455.5 188.5t187.5 460.5q0 270 -188 461q-185 188 -455 188q-267 0 -454 -189 t-187 -460zM606 1672q45 178 199 178q36 0 59 -8l78 -27q29 -10 61 -10q73 0 97 67h88q-51 -184 -199 -184q-35 0 -65 10l-80 27q-24 8 -58 8q-61 0 -92 -61h-88z" />
<glyph unicode="&#xd6;" horiz-adv-x="1792" d="M113 729q0 320 229 547q223 221 553 221q331 0 555 -221q229 -226 229 -547q0 -319 -229.5 -543.5t-554.5 -224.5t-553.5 225.5t-228.5 542.5zM254 729q0 -270 188 -461q185 -188 453 -188t455.5 188.5t187.5 460.5q0 270 -188 461q-185 188 -455 188q-267 0 -454 -189 t-187 -460zM625 1766q0 40 28 69t68 29t69 -29t29 -69q0 -42 -28 -69t-70 -27q-96 0 -96 96zM975 1766q0 40 29 69t69 29t68 -29t28 -69q0 -96 -96 -96q-42 0 -70 27t-28 69z" />
<glyph unicode="&#xd7;" horiz-adv-x="1706" d="M309 123l488 487l-488 488l58 57l487 -487l487 487l58 -57l-488 -488l488 -487l-58 -57l-487 487l-487 -487z" />
<glyph unicode="&#xd8;" horiz-adv-x="1792" d="M113 731q0 319 229.5 543.5t552.5 224.5q306 0 514 -186l184 192l70 -67l-186 -191q202 -219 202 -516q0 -320 -228 -542t-566 -222q-273 0 -488 172l-178 -184l-65 70l176 180q-217 209 -217 526zM256 731q0 -239 166 -434l897 924q-183 159 -424 159 q-268 0 -453.5 -188.5t-185.5 -460.5zM489 233q190 -149 406 -149q266 0 454.5 189.5t188.5 457.5q0 231 -154 422z" />
<glyph unicode="&#xd9;" horiz-adv-x="1417" d="M176 551v913h131v-956q0 -428 402 -428q399 0 399 428v956h133v-913q0 -590 -532 -590q-533 0 -533 590zM465 1958h164l213 -350h-94z" />
<glyph unicode="&#xda;" horiz-adv-x="1417" d="M176 551v913h131v-956q0 -428 402 -428q399 0 399 428v956h133v-913q0 -590 -532 -590q-533 0 -533 590zM576 1608l213 350h164l-283 -350h-94z" />
<glyph unicode="&#xdb;" horiz-adv-x="1417" d="M176 551v913h131v-956q0 -428 402 -428q399 0 399 428v956h133v-913q0 -590 -532 -590q-533 0 -533 590zM422 1608l213 350h146l213 -350h-92l-193 250l-195 -250h-92z" />
<glyph unicode="&#xdc;" horiz-adv-x="1417" d="M176 551v913h131v-956q0 -428 402 -428q399 0 399 428v956h133v-913q0 -590 -532 -590q-533 0 -533 590zM437 1766q0 40 28 69t68 29t69 -29t29 -69q0 -42 -28 -69t-70 -27q-96 0 -96 96zM787 1766q0 40 29 69t69 29t68 -29t28 -69q0 -96 -96 -96q-42 0 -70 27t-28 69z " />
<glyph unicode="&#xdd;" horiz-adv-x="498" d="M148 1766q0 42 30 73t72 31q43 0 72.5 -30.5t29.5 -73.5q0 -42 -30 -72.5t-72 -30.5t-72 30.5t-30 72.5zM182 0v1464h133v-1464h-133z" />
<glyph unicode="&#xde;" horiz-adv-x="1020" d="M70 246l114 61q67 -227 299 -227q142 0 220 84q75 82 75 225q0 126 -83 209q-53 53 -195 129q-181 96 -250 161q-117 109 -117 259q0 161 110 259q105 93 269 93q222 0 324 -186l-103 -62q-66 129 -229 129q-108 0 -172 -63.5t-64 -171.5q0 -154 254 -287l70 -37 q165 -91 229 -168q84 -102 84 -264q0 -198 -115 -313t-313 -115q-291 0 -407 285zM299 -309q162 -33 225 -33q125 0 125 88q0 90 -141 90q-7 0 -20.5 -1t-20.5 -1v166h61v-100h15q213 0 213 -152q0 -164 -215 -164q-98 0 -242 37v70z" />
<glyph unicode="&#xdf;" horiz-adv-x="1059" d="M33 782v105h121v297q0 180 87 280q92 107 269 107q172 0 267 -110q91 -104 91 -279q0 -234 -217 -318q310 -35 310 -432q0 -209 -107 -338q-115 -139 -319 -139q-58 0 -123 25v131q60 -31 131 -31q149 0 223 106q65 92 65 248q0 367 -325 367q-12 0 -27 -1l-45 -3v124h24 q17 -1 25 -1q258 0 258 270q0 268 -241 268q-145 0 -197 -121q-27 -62 -27 -227v-1110h-122v782h-121z" />
<glyph unicode="&#xe0;" horiz-adv-x="1108" d="M84 438q0 200 104 335q114 147 308 147q232 0 323 -195v162h123v-887h-123v162q-90 -201 -311 -201q-201 0 -316 141q-108 131 -108 336zM221 434q0 -160 68 -253q77 -105 231 -105t233 118q68 102 68 263q0 153 -72 246q-79 104 -227 104q-152 0 -232 -115 q-69 -99 -69 -258zM311 1380h164l213 -350h-94z" />
<glyph unicode="&#xe1;" horiz-adv-x="1108" d="M84 438q0 200 104 335q114 147 308 147q232 0 323 -195v162h123v-887h-123v162q-90 -201 -311 -201q-201 0 -316 141q-108 131 -108 336zM221 434q0 -160 68 -253q77 -105 231 -105t233 118q68 102 68 263q0 153 -72 246q-79 104 -227 104q-152 0 -232 -115 q-69 -99 -69 -258zM422 1030l213 350h164l-283 -350h-94z" />
<glyph unicode="&#xe2;" horiz-adv-x="1108" d="M84 438q0 200 104 335q114 147 308 147q232 0 323 -195v162h123v-887h-123v162q-90 -201 -311 -201q-201 0 -316 141q-108 131 -108 336zM221 434q0 -160 68 -253q77 -105 231 -105t233 118q68 102 68 263q0 153 -72 246q-79 104 -227 104q-152 0 -232 -115 q-69 -99 -69 -258zM268 1030l213 350h146l213 -350h-92l-193 250l-195 -250h-92z" />
<glyph unicode="&#xe3;" horiz-adv-x="1108" d="M84 438q0 200 104 335q114 147 308 147q232 0 323 -195v162h123v-887h-123v162q-90 -201 -311 -201q-201 0 -316 141q-108 131 -108 336zM221 434q0 -160 68 -253q77 -105 231 -105t233 118q68 102 68 263q0 153 -72 246q-79 104 -227 104q-152 0 -232 -115 q-69 -99 -69 -258zM264 1094q45 178 199 178q36 0 59 -8l78 -27q29 -10 61 -10q73 0 97 67h88q-51 -184 -199 -184q-35 0 -65 10l-80 27q-24 8 -58 8q-61 0 -92 -61h-88z" />
<glyph unicode="&#xe4;" horiz-adv-x="1108" d="M84 438q0 200 104 335q114 147 308 147q232 0 323 -195v162h123v-887h-123v162q-90 -201 -311 -201q-201 0 -316 141q-108 131 -108 336zM221 434q0 -160 68 -253q77 -105 231 -105t233 118q68 102 68 263q0 153 -72 246q-79 104 -227 104q-152 0 -232 -115 q-69 -99 -69 -258zM283 1188q0 40 28 69t68 29t69 -29t29 -69q0 -42 -28 -69t-70 -27q-96 0 -96 96zM633 1188q0 40 29 69t69 29t68 -29t28 -69q0 -96 -96 -96q-42 0 -70 27t-28 69z" />
<glyph unicode="&#xe5;" horiz-adv-x="1108" d="M84 438q0 200 104 335q114 147 308 147q232 0 323 -195v162h123v-887h-123v162q-90 -201 -311 -201q-201 0 -316 141q-108 131 -108 336zM221 434q0 -160 68 -253q77 -105 231 -105t233 118q68 102 68 263q0 153 -72 246q-79 104 -227 104q-152 0 -232 -115 q-69 -99 -69 -258zM291 1221q0 100 67.5 167.5t167.5 67.5t168 -67.5t68 -167.5t-68 -168t-168 -68q-99 0 -167 68.5t-68 167.5zM393 1221q0 -56 38.5 -95t94.5 -39t94.5 39t38.5 95t-38.5 95.5t-94.5 39.5t-94.5 -39.5t-38.5 -95.5z" />
<glyph unicode="&#xe6;" horiz-adv-x="1624" d="M72 246q0 144 112 225q100 72 250 72q174 0 276 -88q3 18 3 65q0 293 -275 293q-153 0 -301 -78l2 131q150 54 310 54q118 0 205 -39q109 -49 137 -148q101 187 329 187q198 0 310 -134q104 -125 104 -327v-21h-705q5 -154 72 -251q78 -113 223 -113q205 0 299 211 l117 -62q-136 -264 -414 -264q-243 0 -362 221q-78 -221 -356 -221q-142 0 -235 71q-101 78 -101 216zM207 250q0 -176 233 -176q102 0 176 46q86 53 86 150q0 87 -84 132q-67 36 -163 36q-104 0 -170 -41q-78 -49 -78 -147zM838 543h551q-8 123 -81 190.5t-196 67.5 q-114 0 -188 -72t-86 -186z" />
<glyph unicode="&#xe7;" horiz-adv-x="934" d="M92 432q0 218 135 353t353 135q162 0 276 -60l-2 -135q-124 86 -276 86q-170 0 -267 -110q-94 -105 -94 -277q0 -158 101.5 -258t259.5 -100q148 0 290 100v-135q-130 -74 -313 -74q-206 0 -334.5 134t-128.5 341zM334 -309q162 -33 225 -33q125 0 125 88q0 90 -141 90 q-7 0 -20.5 -1t-20.5 -1v166h61v-100h15q213 0 213 -152q0 -164 -215 -164q-98 0 -242 37v70z" />
<glyph unicode="&#xe8;" horiz-adv-x="1018" d="M88 434q0 208 110 342q119 144 322 144q193 0 303 -132q103 -124 103 -321v-27h-705q5 -157 74 -255q80 -113 229 -113q197 0 295 213l113 -62q-132 -262 -408 -262q-202 0 -322 137q-114 131 -114 336zM229 545h551q-19 256 -276 256q-114 0 -188.5 -70.5t-86.5 -185.5z M266 1380h164l213 -350h-94z" />
<glyph unicode="&#xe9;" horiz-adv-x="1018" d="M88 434q0 208 110 342q119 144 322 144q193 0 303 -132q103 -124 103 -321v-27h-705q5 -157 74 -255q80 -113 229 -113q197 0 295 213l113 -62q-132 -262 -408 -262q-202 0 -322 137q-114 131 -114 336zM229 545h551q-19 256 -276 256q-114 0 -188.5 -70.5t-86.5 -185.5z M377 1030l213 350h164l-283 -350h-94z" />
<glyph unicode="&#xea;" horiz-adv-x="1018" d="M88 434q0 208 110 342q119 144 322 144q193 0 303 -132q103 -124 103 -321v-27h-705q5 -157 74 -255q80 -113 229 -113q197 0 295 213l113 -62q-132 -262 -408 -262q-202 0 -322 137q-114 131 -114 336zM223 1030l213 350h146l213 -350h-92l-193 250l-195 -250h-92z M229 545h551q-19 256 -276 256q-114 0 -188.5 -70.5t-86.5 -185.5z" />
<glyph unicode="&#xeb;" horiz-adv-x="1018" d="M88 434q0 208 110 342q119 144 322 144q193 0 303 -132q103 -124 103 -321v-27h-705q5 -157 74 -255q80 -113 229 -113q197 0 295 213l113 -62q-132 -262 -408 -262q-202 0 -322 137q-114 131 -114 336zM229 545h551q-19 256 -276 256q-114 0 -188.5 -70.5t-86.5 -185.5z M238 1188q0 40 28 69t68 29t69 -29t29 -69q0 -42 -28 -69t-70 -27q-96 0 -96 96zM588 1188q0 40 29 69t69 29t68 -29t28 -69q0 -96 -96 -96q-42 0 -70 27t-28 69z" />
<glyph unicode="&#xec;" horiz-adv-x="471" d="M-8 1380h164l213 -350h-94zM172 0v887h127v-887h-127z" />
<glyph unicode="&#xed;" horiz-adv-x="471" d="M103 1030l213 350h164l-283 -350h-94zM172 0v887h127v-887h-127z" />
<glyph unicode="&#xee;" horiz-adv-x="471" d="M-51 1030l213 350h146l213 -350h-92l-193 250l-195 -250h-92zM172 0v887h127v-887h-127z" />
<glyph unicode="&#xef;" horiz-adv-x="471" d="M-36 1188q0 40 28 69t68 29t69 -29t29 -69q0 -42 -28 -69t-70 -27q-96 0 -96 96zM172 0v887h127v-887h-127zM314 1188q0 40 29 69t69 29t68 -29t28 -69q0 -96 -96 -96q-42 0 -70 27t-28 69z" />
<glyph unicode="&#xf0;" horiz-adv-x="1108" d="M90 440q0 205 104 337q113 143 312 143q103 0 187 -52q88 -54 126 -147v166h125v-733q0 -317 -41 -404q-93 -196 -381 -196q-353 0 -395 276h154q30 -166 251 -166q237 0 278 185q9 44 9 135v180q-88 -203 -319 -203q-199 0 -310 143q-100 130 -100 336zM223 438 q0 -155 64 -250q74 -112 221 -112q153 0 237 113q76 101 76 260q0 157 -71 252q-79 106 -230 106q-150 0 -229 -113q-68 -99 -68 -256zM281 1284h79q21 -129 195 -129q172 0 193 129h81q-23 -240 -274 -240t-274 240z" />
<glyph unicode="&#xf1;" horiz-adv-x="1067" d="M164 0v887h117v-137q108 170 313 170q151 0 235 -83.5t84 -234.5v-602h-125v547q0 262 -227 262q-274 0 -274 -346v-463h-123zM244 1094q45 178 199 178q36 0 59 -8l78 -27q29 -10 61 -10q73 0 97 67h88q-51 -184 -199 -184q-35 0 -65 10l-80 27q-24 8 -58 8 q-61 0 -92 -61h-88z" />
<glyph unicode="&#xf2;" horiz-adv-x="1143" d="M90 442q0 199 139.5 338.5t337.5 139.5q202 0 344 -140t142 -338q0 -197 -140 -336q-146 -145 -346 -145q-193 0 -340 145q-137 135 -137 336zM223 440q0 -151 98 -256q100 -108 250 -108t251 108q98 105 98 256q0 152 -99 258.5t-250 106.5t-249.5 -106.5t-98.5 -258.5z M327 1380h164l213 -350h-94z" />
<glyph unicode="&#xf3;" horiz-adv-x="1143" d="M90 442q0 199 139.5 338.5t337.5 139.5q202 0 344 -140t142 -338q0 -197 -140 -336q-146 -145 -346 -145q-193 0 -340 145q-137 135 -137 336zM223 440q0 -151 98 -256q100 -108 250 -108t251 108q98 105 98 256q0 152 -99 258.5t-250 106.5t-249.5 -106.5t-98.5 -258.5z M438 1030l213 350h164l-283 -350h-94z" />
<glyph unicode="&#xf4;" horiz-adv-x="1143" d="M90 442q0 199 139.5 338.5t337.5 139.5q202 0 344 -140t142 -338q0 -197 -140 -336q-146 -145 -346 -145q-193 0 -340 145q-137 135 -137 336zM223 440q0 -151 98 -256q100 -108 250 -108t251 108q98 105 98 256q0 152 -99 258.5t-250 106.5t-249.5 -106.5t-98.5 -258.5z M284 1030l213 350h146l213 -350h-92l-193 250l-195 -250h-92z" />
<glyph unicode="&#xf5;" horiz-adv-x="1143" d="M90 442q0 199 139.5 338.5t337.5 139.5q202 0 344 -140t142 -338q0 -197 -140 -336q-146 -145 -346 -145q-193 0 -340 145q-137 135 -137 336zM223 440q0 -151 98 -256q100 -108 250 -108t251 108q98 105 98 256q0 152 -99 258.5t-250 106.5t-249.5 -106.5t-98.5 -258.5z M280 1094q45 178 199 178q36 0 59 -8l78 -27q29 -10 61 -10q73 0 97 67h88q-51 -184 -199 -184q-35 0 -65 10l-80 27q-24 8 -58 8q-61 0 -92 -61h-88z" />
<glyph unicode="&#xf6;" horiz-adv-x="1143" d="M90 442q0 199 139.5 338.5t337.5 139.5q202 0 344 -140t142 -338q0 -197 -140 -336q-146 -145 -346 -145q-193 0 -340 145q-137 135 -137 336zM223 440q0 -151 98 -256q100 -108 250 -108t251 108q98 105 98 256q0 152 -99 258.5t-250 106.5t-249.5 -106.5t-98.5 -258.5z M299 1188q0 40 28 69t68 29t69 -29t29 -69q0 -42 -28 -69t-70 -27q-96 0 -96 96zM649 1188q0 40 29 69t69 29t68 -29t28 -69q0 -96 -96 -96q-42 0 -70 27t-28 69z" />
<glyph unicode="&#xf7;" horiz-adv-x="1706" d="M254 569v82h1198v-82h-1198zM756 264q0 41 28.5 71t69.5 30q42 0 70 -29.5t28 -71.5q0 -41 -28.5 -69.5t-69.5 -28.5t-69.5 28.5t-28.5 69.5zM756 956q0 41 28.5 70t69.5 29q42 0 70 -28.5t28 -70.5q0 -41 -28.5 -70.5t-69.5 -29.5t-69.5 29.5t-28.5 70.5z" />
<glyph unicode="&#xf8;" horiz-adv-x="1143" d="M88 432q0 209 139 348.5t348 139.5q164 0 302 -111l110 113l62 -58l-113 -110q117 -145 117 -310q0 -210 -141.5 -346.5t-352.5 -136.5q-161 0 -295 113l-117 -115l-55 59l111 113q-115 142 -115 301zM223 434q0 -114 70 -213l500 502q-88 82 -211 82q-162 0 -260.5 -104 t-98.5 -267zM346 160q100 -82 217 -82q157 0 256 104t99 262q0 114 -68 220z" />
<glyph unicode="&#xf9;" horiz-adv-x="1079" d="M164 381v506h123v-443q0 -175 40 -255q57 -113 212 -113q154 0 212 114q42 81 42 254v443h122v-506q0 -420 -374 -420q-377 0 -377 420zM297 1380h164l213 -350h-94z" />
<glyph unicode="&#xfa;" horiz-adv-x="1079" d="M164 381v506h123v-443q0 -175 40 -255q57 -113 212 -113q154 0 212 114q42 81 42 254v443h122v-506q0 -420 -374 -420q-377 0 -377 420zM408 1030l213 350h164l-283 -350h-94z" />
<glyph unicode="&#xfb;" horiz-adv-x="1079" d="M164 381v506h123v-443q0 -175 40 -255q57 -113 212 -113q154 0 212 114q42 81 42 254v443h122v-506q0 -420 -374 -420q-377 0 -377 420zM254 1030l213 350h146l213 -350h-92l-193 250l-195 -250h-92z" />
<glyph unicode="&#xfc;" horiz-adv-x="1079" d="M164 381v506h123v-443q0 -175 40 -255q57 -113 212 -113q154 0 212 114q42 81 42 254v443h122v-506q0 -420 -374 -420q-377 0 -377 420zM269 1188q0 40 28 69t68 29t69 -29t29 -69q0 -42 -28 -69t-70 -27q-96 0 -96 96zM619 1188q0 40 29 69t69 29t68 -29t28 -69 q0 -96 -96 -96q-42 0 -70 27t-28 69z" />
<glyph unicode="&#xfd;" horiz-adv-x="471" d="M172 0v887h127v-887h-127z" />
<glyph unicode="&#xfe;" horiz-adv-x="782" d="M63 158l117 67q58 -149 219 -149q73 0 119 35q51 39 51 110q0 102 -181 173q-11 5 -30 12q-118 47 -171 91q-81 67 -81 167q0 119 85 191q81 67 202 67q222 0 295 -181l-113 -63q-43 129 -190 129q-61 0 -102 -35q-45 -37 -45 -96q0 -70 75 -115q33 -20 136 -55 q127 -44 179 -94q68 -65 68 -183q0 -132 -98 -204q-87 -64 -223 -64q-237 0 -312 197zM180 -309q162 -33 225 -33q125 0 125 88q0 90 -141 90q-7 0 -20.5 -1t-20.5 -1v166h61v-100h15q213 0 213 -152q0 -164 -215 -164q-98 0 -242 37v70z" />
<glyph unicode="&#xff;" horiz-adv-x="825" d="M43 887h131l254 -694l234 694h131l-459 -1333h-127l155 452zM142 1188q0 40 28 69t68 29t69 -29t29 -69q0 -42 -28 -69t-70 -27q-96 0 -96 96zM492 1188q0 40 29 69t69 29t68 -29t28 -69q0 -96 -96 -96q-42 0 -70 27t-28 69z" />
<glyph unicode="&#x152;" horiz-adv-x="2320" d="M113 733q0 321 219 541q224 225 547 225q399 0 604 -338v303h698v-125h-575v-458h575v-125h-575v-631h575v-125h-698v311q-202 -346 -617 -346q-209 0 -379 103q-374 227 -374 665zM242 731q0 -265 184 -459q176 -186 436 -186q262 0 436 184q181 191 181 461 q0 280 -172 459q-181 188 -445 188q-258 0 -436 -186q-184 -192 -184 -461z" />
<glyph unicode="&#x153;" horiz-adv-x="1841" d="M92 442q0 199 140.5 339.5t330.5 140.5q291 0 412 -234q43 113 144 175q95 59 220 59q196 0 307 -134q103 -124 103 -325v-21h-705q0 -150 70 -251q80 -115 223 -115q207 0 301 213l117 -64q-137 -264 -403 -264q-128 0 -229 59q-110 64 -148 179q-120 -238 -406 -238 q-200 0 -338.5 139.5t-138.5 341.5zM225 440q0 -151 98 -256q100 -108 250 -108t251 108q98 105 98 256q0 152 -99 258.5t-250 106.5t-249.5 -106.5t-98.5 -258.5zM1053 545h551q-8 123 -81 191.5t-196 68.5q-113 0 -189 -73.5t-85 -186.5z" />
<glyph unicode="&#x178;" horiz-adv-x="1118" d="M10 1464h160l393 -671l395 671h152l-481 -790v-674h-133v674zM287 1766q0 40 28 69t68 29t69 -29t29 -69q0 -42 -28 -69t-70 -27q-96 0 -96 96zM637 1766q0 40 29 69t69 29t68 -29t28 -69q0 -96 -96 -96q-42 0 -70 27t-28 69z" />
<glyph unicode="&#x2c6;" d="M225 1030l213 350h146l213 -350h-92l-193 250l-195 -250h-92z" />
<glyph unicode="&#x2dc;" d="M221 1094q45 178 199 178q36 0 59 -8l78 -27q29 -10 61 -10q73 0 97 67h88q-51 -184 -199 -184q-35 0 -65 10l-80 27q-24 8 -58 8q-61 0 -92 -61h-88z" />
<glyph unicode="&#x2000;" horiz-adv-x="986" />
<glyph unicode="&#x2001;" horiz-adv-x="1972" />
<glyph unicode="&#x2002;" horiz-adv-x="986" />
<glyph unicode="&#x2003;" horiz-adv-x="1972" />
<glyph unicode="&#x2004;" horiz-adv-x="657" />
<glyph unicode="&#x2005;" horiz-adv-x="493" />
<glyph unicode="&#x2006;" horiz-adv-x="328" />
<glyph unicode="&#x2007;" horiz-adv-x="328" />
<glyph unicode="&#x2008;" horiz-adv-x="246" />
<glyph unicode="&#x2009;" horiz-adv-x="394" />
<glyph unicode="&#x200a;" horiz-adv-x="109" />
<glyph unicode="&#x2010;" horiz-adv-x="711" d="M137 377v129h436v-129h-436z" />
<glyph unicode="&#x2011;" horiz-adv-x="711" d="M137 377v129h436v-129h-436z" />
<glyph unicode="&#x2012;" horiz-adv-x="711" d="M137 377v129h436v-129h-436z" />
<glyph unicode="&#x2013;" d="M0 401v80h1024v-80h-1024z" />
<glyph unicode="&#x2014;" horiz-adv-x="2048" d="M0 401v80h2048v-80h-2048z" />
<glyph unicode="&#x2018;" horiz-adv-x="590" d="M123 993l262 504l82 -31l-195 -540z" />
<glyph unicode="&#x2019;" horiz-adv-x="590" d="M123 958l194 539l150 -65l-262 -506z" />
<glyph unicode="&#x201a;" horiz-adv-x="590" d="M121 -283l203 537l145 -61l-264 -515z" />
<glyph unicode="&#x201c;" horiz-adv-x="877" d="M106 993l261 504l82 -31l-195 -540zM428 993l262 504l82 -31l-194 -540z" />
<glyph unicode="&#x201d;" horiz-adv-x="877" d="M106 958l193 539l150 -65l-263 -506zM428 958l195 539l149 -65l-262 -506z" />
<glyph unicode="&#x201e;" horiz-adv-x="877" d="M106 -287l193 541l150 -68l-263 -505zM428 -287l195 541l149 -68l-262 -505z" />
<glyph unicode="&#x2022;" horiz-adv-x="1208" d="M307 762q0 124 86.5 209.5t210.5 85.5q123 0 209 -86t86 -209t-87 -210t-210 -87q-124 0 -209.5 86.5t-85.5 210.5z" />
<glyph unicode="&#x2026;" horiz-adv-x="2048" d="M240 84q0 43 29.5 72.5t72.5 29.5t72.5 -29.5t29.5 -72.5t-29.5 -72.5t-72.5 -29.5t-72.5 29.5t-29.5 72.5zM922 84q0 43 29.5 72.5t72.5 29.5t72.5 -29.5t29.5 -72.5t-29.5 -72.5t-72.5 -29.5t-72.5 29.5t-29.5 72.5zM1606 84q0 43 29.5 72.5t72.5 29.5t72.5 -29.5 t29.5 -72.5t-29.5 -72.5t-72.5 -29.5t-72.5 29.5t-29.5 72.5z" />
<glyph unicode="&#x202f;" horiz-adv-x="394" />
<glyph unicode="&#x2039;" horiz-adv-x="422" d="M43 436l244 395l86 -51l-209 -346l215 -332l-84 -51z" />
<glyph unicode="&#x203a;" horiz-adv-x="422" d="M43 102l215 332l-211 346l88 51l244 -395l-254 -385z" />
<glyph unicode="&#x205f;" horiz-adv-x="493" />
<glyph unicode="&#x2122;" horiz-adv-x="1706" d="M274 1403v51h420v-51h-174v-479h-67v479h-179zM825 924v530h101l174 -440l162 440h102v-530h-59v479l-181 -479h-49l-190 479v-479h-60z" />
<glyph unicode="&#xe000;" horiz-adv-x="885" d="M0 0v885h885v-885h-885z" />
</font>
</defs>
</svg>
